#TITLE:More-More Lovers;
#SUBTITLE:MM! ED;
#ARTIST:Natsuko Aso;
#TITLETRANSLIT:;
#SUBTITLETRANSLIT:;
#ARTISTTRANSLIT:;
#CREDIT:;
#BANNER:;
#BACKGROUND:;
#LYRICSPATH:;
#CDTITLE:;
#MUSIC:MM_ [ED].mp3;
#OFFSET:0.060;
#SAMPLESTART:32.914;
#SAMPLELENGTH:12.000;
#SELECTABLE:YES;
#BPMS:0.000=181.960;
#STOPS:;
#BGCHANGES:0.188=MM_ [ED].avi=1.000=0=0=1,
99999=-nosongbg-=1.000=0=0=0 // don't automatically add -songbackground-
;
// cache tags:
#FIRSTBEAT:3.000;
#LASTBEAT:266.500;
#SONGFILENAME:songs/Pack anime 1/MM_ [ED]/MM_ [ED].sm;
#HASMUSIC:1;
#HASBANNER:0;
#MUSICLENGTH:87.888;
// end cache tags

//---------------dance-single - ----------------
#NOTES:
     dance-single:
     :
     Hard:
     9:
     0.874,0.872,0.808,0.091,0.097,459.000,71.000,8.000,2.000,0.000:
0000
0000
0000
1000
,
0001
0100
0001
0100
0010
1000
1010
1010
,
0110
0110
0000
0100
0010
1000
0010
0000
,
1010
0000
0100
0001
0011
0000
0001
0101
,
0101
0101
0000
1000
0010
1000
1010
0000
,
0100
0001
0100
0010
1000
0010
0100
0001
,
1000
0010
0100
0010
0001
0100
0101
0000
,
0100
0010
1000
0010
0100
0001
0100
0010
,
1000
0100
1100
0000
0010
1000
1010
0000
,
1000
0100
1000
0001
0100
1000
0010
0001
,
0100
0010
0001
0010
0011
0000
0101
0000
,
0220
0000
0000
0000
0000
0000
0000
0000
0330
0000
0000
0000
1000
0100
1000
0000
,
0010
0100
0010
0000
0001
0010
0001
0000
1000
0001
1000
0000
1001
0000
1000
0000
,
0010
0100
0001
0100
0010
1000
0001
0100
,
0001
0010
0012
0000
0013
0000
0011
0010
,
0001
0100
0010
1000
0100
0110
0010
0001
,
0100
0010
1000
0010
1000
0000
0101
0100
,
0010
0100
0001
0100
0010
1000
0100
1000
,
0010
0100
0201
0000
0301
0000
0102
0000
,
0103
0000
0101
0100
0010
1000
0001
1000
,
0010
0000
0100
0000
0000
0000
0010
0000
1000
0000
0000
0000
0001
0000
0100
0001
,
0100
0000
0010
0000
1000
0000
0100
1000
0100
0000
0001
0100
0001
0000
0100
0000
,
0010
0000
1000
0100
1000
0000
0010
0000
0100
0000
0001
0000
0101
0000
0100
0000
,
0010
0000
1000
0000
0010
0001
0010
0001
0100
0000
0010
0000
1000
0010
1000
0010
,
0100
0000
0010
0000
1000
0000
0001
0000
0100
0000
0001
0100
0001
0000
0100
0000
,
0010
1000
0010
1010
1000
0001
0100
0010
,
1000
1010
0010
0100
0001
1000
1010
0000
,
0110
0010
0100
0000
0001
1001
0000
1000
,
0010
0100
0000
0000
0001
0100
0110
0000
,
0010
1000
0100
1000
0010
1000
0100
0000
,
1000
0010
0100
0001
0010
0001
0101
0100
,
0010
1000
0100
0010
0001
0010
0001
0100
,
0010
1000
0100
1000
0010
0110
0000
0001
,
1000
1010
0100
0101
,
0010
0000
0011
0000
0001
0000
0101
0100
,
0010
1000
0100
0010
0100
0001
0101
0100
,
0010
1000
0010
0100
0001
0010
0001
0100
,
0101
0001
0010
0100
1000
0010
0000
0001
,
0000
0100
0001
1000
0100
1000
1100
0100
,
1000
0100
1000
0010
0000
0100
0000
0001
,
0101
0000
0110
0000
0100
0000
1000
1000
,
1000
0000
1000
0000
0100
1000
1010
0000
,
0100
0001
0011
0010
0001
0100
0010
1000
,
0100
1100
0000
0010
0100
0001
1001
0000
,
1010
0010
0100
0001
0010
0001
1000
0010
,
1000
0100
0000
1000
1000
0001
1001
0000
,
0010
0001
0100
0001
0010
0100
1000
0010
,
0100
0001
0000
0100
0010
0001
0101
0001
,
0100
0001
1000
0010
0100
0001
0101
0100
,
0001
0000
1000
0010
1000
0100
1100
1000
,
0010
0100
1000
0001
0100
0010
0011
0001
,
0100
0001
0010
0100
1000
0010
0100
0001
,
0101
0100
0010
1000
0100
0010
0001
0010
,
0011
0000
0101
0100
0110
0010
1000
0000
,
0010
0100
0001
0100
0010
1000
1100
1100
,
0101
0101
0000
0001
0100
0001
0010
0000
,
0011
0000
0010
1000
1010
0010
0110
0110
,
0101
0101
0000
0000
0001
0000
0100
0001
,
0101
0001
0100
0010
1000
0100
1000
0010
,
0100
0001
0100
0001
0010
1000
1001
0000
,
0010
0100
0001
1000
0100
0000
0100
0001
,
0100
0010
0000
1000
1010
0010
0100
0000
,
0101
0000
0010
1000
0100
0000
1000
0001
,
1000
0010
0000
0100
0001
0000
0101
0000
,
0020
0000
0000
0000
0000
0000
0000
0000
0000
0000
0030
0000
0100
1000
0100
0000
,
0010
0100
0010
0000
0001
0010
0001
0000
1000
0001
2000
0000
0000
0000
0000
0000
,
3002
0000
0000
0000
0003
M00M
0000
0000
;

//---------------dance-single - Copied from----------------
#NOTES:
     dance-single:
     Copied from:
     Medium:
     7:
     0.584,0.493,0.228,0.046,0.000,335.000,20.000,4.000,2.000,0.000:
0000
0000
0000
1000
,
0001
0100
0001
0000
0010
0000
1010
0000
,
0100
0010
0000
0100
0010
0000
1000
0000
,
1010
0100
0011
0101
,
0100
0001
0100
0000
0010
0000
1000
0000
,
0100
0000
0100
0010
0100
0000
0001
0000
,
1000
0010
0000
0010
0001
0000
0101
0000
,
0100
0000
1000
0010
0100
0000
0100
0000
,
1000
0100
1000
0000
0010
0000
1010
0000
,
1000
0000
1000
0001
0100
0000
0010
0001
,
0100
0001
0000
0010
0100
0000
0010
0000
,
0200
0000
0300
1000
,
0100
0000
0010
0000
0001
0000
0001
1000
,
0001
0100
0001
0000
0010
0000
0001
0100
,
0001
0010
0001
0000
0010
0000
0011
0000
,
0001
0000
0010
1000
0010
0100
0001
0000
,
0100
0010
0000
0010
1000
0000
0101
0000
,
0010
0100
0001
0000
0010
0000
0100
1000
,
0010
0100
0001
0000
0100
0000
0001
0000
,
0100
0000
0001
0100
0001
0000
0010
1000
,
0010
0100
0000
0010
1000
0000
0001
0100
,
0001
0000
1000
0100
1000
0000
0001
0100
,
0010
1000
0100
0000
0010
0000
0001
0100
,
0010
0000
0010
0001
0100
0000
1000
0000
,
0100
0010
1000
0000
0100
0000
0001
0100
,
0001
0000
0010
0100
0001
0100
0001
0000
,
1000
0000
0010
0100
0001
0000
1010
0000
,
0000
0010
0100
0000
0001
1000
0000
0010
,
0010
0010
0000
0000
0001
0100
0001
0000
,
0010
0000
0100
1000
0010
1000
0100
0000
,
1000
0000
0100
0001
0100
0001
0000
0100
,
0000
0001
0100
0001
0000
0010
0000
0100
,
0000
0001
0000
1000
0010
1000
0000
1000
,
1000
1010
0100
0010
,
0001
0101
0010
0100
,
1000
0000
1010
0000
0100
0001
0100
0001
,
0000
0100
0000
0001
0000
0100
0010
1000
,
0010
1000
0010
1000
0010
0100
0000
0001
,
0000
0100
0001
0000
0100
0000
0100
0001
,
0100
0001
0100
0010
0000
0100
0000
0001
,
0100
0110
0100
1000
,
0000
0000
1000
0000
0010
1000
0010
0000
,
0100
0001
0100
0000
0001
0000
0010
1000
,
0100
1000
0000
0010
0100
0001
0100
0000
,
1000
0010
1000
0000
0001
0000
1000
0010
,
1000
0100
0000
0000
0001
0000
1001
0000
,
0010
0001
0100
0000
0010
0000
1000
0010
,
0100
0001
0000
0100
0010
0100
0010
0000
,
1000
0001
1000
0000
0100
0000
0001
0100
,
0001
0100
0000
0010
1000
0100
1000
0000
,
0010
0100
0001
0011
,
0010
0100
0010
0000
1000
0010
0100
0000
,
0010
0000
0100
0000
0001
0000
1000
0001
,
0000
1000
0001
0000
0100
0001
0100
0000
,
0010
0000
0001
0100
0010
0000
1000
0000
,
0100
0001
0000
0001
0100
0000
0001
0000
,
0011
0000
0010
1000
0010
0000
0100
0001
,
0100
0010
0000
0000
0001
0000
0100
0000
,
0101
0100
0010
1000
,
0100
0000
0001
0100
0001
0000
1001
0000
,
0010
0000
0001
1000
0001
0000
0100
0000
,
0010
1000
0000
1000
0010
0000
0100
0000
,
0101
0000
0010
1000
0100
0000
1000
0000
,
1000
0010
0000
0100
0001
0000
0101
0000
,
0020
0000
0000
0000
0000
0030
0100
0000
,
0010
0001
2000
0000
,
3002
0000
0000
0000
0003
M00M
0000
0000
;

//---------------dance-single - Copied from Copied f----------------
#NOTES:
     dance-single:
     Copied from Copied f:
     Easy:
     5:
     0.439,0.455,0.341,0.057,0.000,235.000,30.000,5.000,6.000,0.000:
0000
0000
0000
1000
,
0001
0000
0000
0110
,
0100
0000
0010
0000
,
1010
0000
0011
0101
,
0000
0010
0000
1000
,
0100
0100
0010
0001
,
1000
0010
0100
0001
,
0100
1000
0010
0100
,
1000
0001
0100
0010
,
1000
0010
0100
0010
,
1000
0010
0100
0010
,
0200
0000
0300
1000
,
0000
0010
0000
0001
,
0100
0001
0010
1000
,
0100
1000
0010
0100
,
0001
0010
0100
0001
,
0100
0010
1000
0101
,
0010
1000
0001
0010
,
0100
0001
1000
0001
,
0100
0001
0100
0020
,
0000
0000
0000
0030
1000
0000
1001
0000
,
1000
1010
0100
0101
,
0010
0100
0010
0101
,
0010
1010
0100
0101
,
0100
1000
0100
0101
,
0001
1010
0100
1001
,
1000
0010
0100
1010
,
0100
0000
0100
0000
0000
1000
0000
0000
,
0010
0000
0000
0000
0001
0000
0101
MMMM
,
0010
0100
1000
0100
,
1000
0001
0010
0100
,
0010
0100
0010
0100
,
1000
0010
1000
0001
,
1000
1010
0100
0010
,
0001
0101
0010
0100
,
1000
1010
0100
0100
,
0010
1000
0100
1010
,
0100
0001
0100
0010
,
0100
0001
0100
0101
,
0010
0100
0010
1000
,
0010
0110
0100
1000
,
0000
0000
0010
1010
,
0100
0010
0001
0010
,
0100
1000
0100
0010
,
0001
1000
0001
1000
,
0010
0100
0001
1001
,
0010
0100
0001
0010
,
0100
1000
0010
0100
,
0001
1000
0010
0100
,
0001
0100
1000
1010
,
0010
0100
0001
0011
,
0010
0100
1000
0100
,
0010
0100
0001
1000
,
0010
0001
0100
0001
,
0000
0100
0000
1000
,
0100
0000
0100
0000
,
0011
0000
0010
0000
,
0100
0000
0001
0100
,
0010
0100
0010
1000
,
0100
0001
0100
1100
,
0100
0001
0010
0100
,
0010
1000
0010
0100
,
0101
0010
0100
1000
,
0001
0100
0001
0101
,
0020
0000
0000
0000
0000
0030
0100
0000
,
0010
0001
2000
0000
,
3002
0000
0000
0000
0003
M00M
0000
0000
;
